#TITLE:Horizons of Chaos II By young_editer@hotmail.com;
#ARTIST:The Faceless;
#FILE:05 Horizons of Chaos II - Hypocrisy.mp3;
#BPM:240.001;
#GAP:-380;
#SAMPLESTART:13.000;
#SAMPLELENGTH:12.000;
#CDTITLE:Nepex-Chart.bmp;
#FREEZE:200.000=375.000,842.000=294.000,850.667=176.000,850.667=118.000,899.333=185.000,899.333=123.000,1582.000=250.000,1594.000=250.000,1606.000=250.000,1618.000=250.000,1628.000=250.000,1640.000=250.000,1652.000=250.000,1664.000=250.000,1992.000=1250.000,2002.000=1033.000,2010.000=207.000,2070.000=111.000,2071.000=333.000,2194.000=111.000,2195.000=333.000,2254.000=445.000,2264.000=222.000,2274.000=222.000,2280.000=222.000,2282.000=222.000,2292.000=222.000,2302.000=222.000,2308.000=222.000,2562.000=156.000,2572.000=156.000,2622.667=256.000,2781.333=8200.000;
#CHANGEBPM:722.000=170.201,899.333=162.501,900.000=220.001,906.000=110.001,908.000=220.001,914.000=110.001,918.000=220.001,924.000=110.001,926.000=220.001,942.000=110.001,944.000=220.001,950.000=110.001,954.000=220.001,960.000=110.001,962.000=220.001,982.000=110.001,984.000=220.001,990.000=110.001,994.000=220.001,1000.000=110.001,1002.000=220.001,1018.000=110.001,1020.000=220.001,1026.000=110.001,1030.000=220.001,1036.000=110.001,1038.000=220.001,1060.000=110.001,1064.000=264.001,1064.000=132.001,1068.000=264.001,1068.000=240.001,1624.000=120.001,1626.000=240.001,1670.000=120.001,1672.000=240.001,1994.000=290.500,2012.000=134.960,2442.000=170.200,2623.750=233.421,2624.000=219.301,2624.000=220.001,2630.000=109.661,2630.000=110.001,2632.000=219.301,2632.000=220.001,2638.000=109.660,2638.000=110.000,2642.000=219.301,2642.000=220.001,2648.000=109.640,2648.000=110.000,2650.000=219.301,2650.000=220.001,2666.000=109.660,2666.000=110.000,2668.000=219.301,2668.000=220.001,2674.000=109.660,2674.000=110.000,2678.000=219.301,2678.000=220.001,2684.000=109.640,2684.000=110.000,2686.000=219.301,2686.000=220.001,2706.000=109.660,2706.000=110.000,2708.000=209.301,2708.000=220.001,2714.000=109.640,2714.000=110.000,2718.000=219.300,2718.000=220.000,2724.000=109.640,2724.000=110.000,2726.000=219.300,2726.000=220.000,2742.000=110.000,2744.000=220.000,2750.000=110.000,2754.000=220.000,2760.000=110.000,2762.000=220.000;
#SINGLE:MANIAC:14:
(0000000022206020)
(8040888020604060)
`800000000000800000000000800000000000000000000000600000000000000000000000200000000000000000000000600000000000000080000000000000002000000000000000400000000000000060000000000000008000000000000000'
`200000000000000040000000000000006000000000000000800000000000000020000000000000004000000000000000600000000000600000000000600000000000000000000000200000000000000000000000800000000000000000000000'
(4080222080406040)
`200000000000200000000000200000000000000000000000800000000000000000000000200000000000000000000000400000000000000020000000000000008000000000000000600000000000000040000000000000002000000000000000'
`800000000000000060000000000000004000000000000000200000000000000080000000000000006000000000000000100000000000200000000000100000000000000000000000300000000000000000000000A00000000000000000000000'
(9070121090A07030)
`900000000000600000000000900000000000000000000000A00000000000000000000000100000000000000000000000600000000000000080000000000000002000000000000000400000000000000060000000000000008000000000000000'
[20406080204090A0309010A0]
[7030B030907010B0A0307090]
[B01070A03090402080604020]
`800000000000000060000000000000004000000000000000200000000000000080000000000000006000000000000000100000000000000000000000800000000000200000000000800000000000200000000000800000000000200000000000'
(828!876!638!872!2A6!69!8A!2182)
(848!872!2A6!6B8!8A6!69!8A!2324)
(684!476!638!872!2A6!69!8A!2184)
(262!2A4!472!2A6!6B2!2A!89!6962)
(826!638!876!634!414!41!2A!8782)
(846!638!8A6!6B8!8A6!69!8A!2A62)
(846!634!416!634!418!8A!21!4184)
(826!696!638!872!2A6!69!8A!2A62)
(628!878!8A6!638!8A4!41!2A!8A84)
(626!692!2A6!6B8!8A6!69!8A!2A64)
(286!638!876!638!872!2A!89!6928)
(628!876!638!878!898!8A!21!4162)
(846!638!8A6!6B8!8A8!8A!21!4428)
(262!2A4!472!234!472!2A!89!6926)
(828!892!2A4!472!234!41!2A!8928)
(264!472!238!894!416!69!8A!2200)
(0060204060182828)
(2080406040928284)
(2080602080186828)
(2060408020848280)
(2060206040942868)
(2060204080342868)
(2060406040386820)
(4082828264646490)
(A040804060182828)
(2080406040B28284)
(2080602080186828)
(2060408020948280)
(2060206040A42868)
(2060204080342868)
(2060406040A62842)
(8060208040A62070)
(6048284282862626)
{8060800060002000800040002000800020004000600020008000600080002000}
(6824282862642824)
`800000000000200000000000600000000000400000000000800000002000000080000000200000000000600000000000400000008000000040000000800000000000200000000000800000000000400000000000600000000000200000000000'
(8682628682842828)
(2628628684826460)
[000284626282846262826428]
[246264246282646262842828]
[626284626806080207!7760802]
[04060A!AA60402080607!7720806]
[040207!7760402080604020806]
`0000000040000000000000002000000000000000900000004000000000006000000000002000000000008000000000002000000000006000000000007!700000000000700000000000600000000000200000000000800000000000400000000000'
(629!99B!BB8268249!9948)
`200000000000600000000000400000000000600000000000800000002000000040000000000000000000000000000000600000000000400000000000800000000000200000000000600000000000400000000000A!A00000000000A00000000000'
(4626829!997!77628462)
`9!900000000000900000000000400000000000800000000000200000000000600000000000400000000000600000000000200000008000000060000000000000000000000000000000800000002000000040000000000000000000000000000000'
(8628267!776284629!99)
(B!BB8268249!99482646)
`800000002000000040000000000000000000000000000000600000000000400000000000800000000000200000000000600000000000400000000000A!A00000000000A00000000000400000000000600000000000200000000000600000000000'
(82B!BB7!776284629!9948)
`200000000000600000000000400000000000600000000000200000008000000060000000000000000000000000000000800000002000000040000000000000000000000000000000200000008000000060000000000000000000000000000000'
`800000002000000040000000000000000000000000000000B!B00000000000000000000000000000000000000000B000007!7000000000000000000000000000000000000000007000002!2000000000002000000000006!600000000000600000000000'
(2!228!88B!41!2A!8860206!662!22)
(8!884!443!69!8A!2240408!884!44)
(2!228!881!2A!89!6640608!886!66)
(2!228!88B!41!2A!8860206!662!22)
(4!442!229!8A!21!4420802!228!88)
(4!442!229!8A!21!4480406!662!22)
(6!668!88B!69!8A!2280604242)
(4242868686868!886!66)
(2!228!88B!41!2A!8860206!662!22)
(8!884!41B!69!8A!2240408!884!44)
(2!228!891!2A!89!6640608!886!66)
(2!228!8AB!41!2A!8860206!662!22)
(4!442!229!8A!21!4420802!228!88)
(4!442!229!8A!21!4480406!662!22)
(6!668!88B!69!8A!2280604!442!22)
(6!662!229!8A!21!4400006020)
(4060182828208040)
(6040928284208060)
(2080186828206040)
(8020848280206020)
(6040942868206020)
(4080342868206040)
(6040386820408282)
(8264646490A04080)
(4060182828208040)
(6040B28284208060)
(2080186828206464)
(8282646482828020)
(6040A42868206020)
(4080342868206040)
(6040A62842806020)
(8040A620706010A0)
(68242864A0308264)
(8268B0A046264824)
{A00000007000000090000000A00000007!70000070900000007000000020008000}
(2848683070828428)
(62B09048284286A0)
{70000000A0000000900000007!70000070A0000000400000002000000080000000}
(68242864A0902040)
(82648268B0702080)
(46264824A0904020)
(8484A04090A04060)
(2828486830A06040)
(82842862B0902060)
(48284286A0703000)
(8282828288806020)
(8040888020604060)
`800000000000800000000000800000000000000000000000600000000000000000000000200000000000000000000000600000000000000080000000000000002000000000000000400000000000000060000000000000008000000000000000'
`200000000000000040000000000000006000000000000000800000000000000020000000000000004000000000000000600000000000600000000000600000000000000000000000200000000000000000000000800000000000000000000000'
(4080222080406040)
`200000000000200000000000200000000000000000000000800000000000000000000000200000000000000000000000400000000000000020000000000000008000000000000000600000000000000040000000000000002000000000000000'
`800000000000000060000000000000004000000000000000200000000000000080000000000000006000000000000000100000000000400000000000100000000000000000000000300000000000000000000000A00000000000000000000000'
(9070121090A07030)
`900000000000600000000000900000000000000000000000A00000000000000000000000100000000000000000000000600000000000000080000000000000002000000000000000400000000000000060000000000000008000000000000000'
`200000000000000040000000000000006000000000000000800000000000000020000000000000004000000000000000800000000000800000000000800000000000000000000000600000000000000000000000200000000000000000000000'
(8040888020604060)
`800000000000800000000000800000000000000000000000600000000000000000000000200000000000000000000000400000000000000020000000000000008000000000000000600000000000000040000000000000002000000000000000'
[806040208060700100300100]
0B8267B!B0
(0BA070009000001!10)
{000000000000000000001000B!B0208020800000008000<61>000700000000000A000}
{00000000900000002!200000000000000000000000000020009000000000008020}
`400000006!6000000000000000000000000000000060000000A00000000000000000000000700000000000A00000000000B!B00000000000000000000000000000000000000000000000000000000000B00000000000A00000000000000000000000'
301009!900
{00009000B!B0208020800000002000<8B>000300000000000A0000000000010000000}
`8!800000000000000000000000000000000000000000000000000000000000000000000000000000000000800000000000100000000000000000000000000000200000600000200000600000004!4000000000000000000000000000000040000000'
{A0000000A060206020602060206020607!70000000000000000000700030000000}
A09001!100
{00001000B!B0802080200000008000<61>000700000000000A0000000000090000000}
`2!200000000000000000000000000000000000000000000000000000000000000000000000000000000000200000000000900000000000000000000000200000000000800000000000400000006!6000000000000000000000000000000060000000'
`A00000000000000000000000700000000000A00000000000B!B00000000000000000000000000000000000000000000000000000000000B00000000000A00000000000000000000000700000000000000020000000600000000000000000000000'
{40000000800000006000000040000000600000002!2000000000000000<2B!B>0802080}
`200000000000000000000000000000000000B00000000000400000002000000080000000600000004000000020000000800000000000000000000000000000000000000000000000600000000000000000000000000000008000000000000000'
`000000000000000020000000000000000000000000400000600000008000000020000000400000002000000080000000600000000000000000000000000000000000000000000000A00000000000000000000000B00000000000000000000000'
A73AB397
1BAB3B31
37B1A37B
3AB3A7A7
[300B00A00700928100A00700]
[300900B00A00346100A00900]
{70000000A0000000700000003000000090000000B000000070208000B0000000}
{70000000A0000000B080600010000000A0000000B00000001060208020804080}
{2080208040208020806020602080208040204060206040204080208040802080}
{4080208040802060206020602080208020602060806080602060208020804080}
{4080406020602060806080604060402040204080208040802080408020602080}
{6080208060802080408020804020406020604080400080002000800040002000}
(8286262686424828)
{4000200080006000208020006000200060008000200040002000800020008000}
`600000000000200000000000600000000000400000000000200000000000800000000000200000000000400000000000800000000000200000000000600000000000400000000000800000002000000080000000200000000000600000000000'
`400000008000000040000000800000000000200000000000800000000000400000000000600000000000200000000000800000000000600000000000800000000000200000000000600000000000200000000000800000000000600000000000'
(8284282826286286)
`800000000000400000000000800000000000200000000000600000000000400000000000600000000000000000000000000000000000000000000000200000008000000040000000600000002000000060000000200000008000000020000000'
[846262826428246264246282]
[628400848284628682400846]
[26806080207!776080204060A!AA]
[60402080607!7720806040207!77]
[604020806040208060402090]
(4628267!776284629!99)
(B!BB8268249!99482646)
`800000002000000040000000000000000000000000000000600000000000400000000000800000000000200000000000600000000000400000000000A!A00000000000A00000000000400000000000600000000000200000000000600000000000'
(829!997!776284629!9948)
`200000000000600000000000400000000000600000000000200000008000000060000000000000000000000000000000800000002000000040000000000000000000000000000000800000000000600000000000200000000000800000000000'
(267!776284629!99B!BB82)
`6000000000008000000000002000000000004000000000009!900000000000900000000000400000000000800000000000200000000000600000000000400000000000600000000000800000002000000040000000000000000000000000000000'
(648264A!AA4626829!99)
(7!776284629!99482646)
[286000824000286000824000]
;
#SINGLE:ANOTHER:12:
(0000000022206020)
(8040888020604060)
`800000000000800000000000800000000000000000000000600000000000000000000000200000000000000000000000600000000000000080000000000000002000000000000000400000000000000060000000000000008000000000000000'
`200000000000000040000000000000006000000000000000800000000000000020000000000000004000000000000000600000000000600000000000600000000000000000000000200000000000000000000000800000000000000000000000'
(4080222080406040)
`200000000000200000000000200000000000000000000000800000000000000000000000200000000000000000000000400000000000000020000000000000008000000000000000600000000000000040000000000000002000000000000000'
`800000000000000060000000000000004000000000000000200000000000000080000000000000006000000000000000200000000000200000000000200000000000000000000000600000000000000000000000800000000000000000000000'
(6080222080608020)
`800000000000800000000000800000000000000000000000200000000000000000000000800000000000000000000000600000000000000080000000000000002000000000000000400000000000000060000000000000008000000000000000'
`200000000000000040000000000000006000000000000000800000000000000020000000000000004000000000000000200000000000200000000000200000000000000000000000600000000000000000000000200000000000000000000000'
(8040888020604060)
`800000000000800000000000800000000000000000000000600000000000000000000000200000000000000000000000400000000000000020000000000000008000000000000000600000000000000040000000000000002000000000000000'
`800000000000000060000000000000004000000000000000200000000000000080000000000000006000000000000000100000000000000000000000800000000000200000000000800000000000200000000000800000000000200000000000'
`800000000000200000000000800000000000000000000000400000000000000000000000800000000000000000000000200000000000000000000000600000000000000040000000000000000000000000000000800000000000000000000000'
[600800600400800406000200]
[800600200800400604000800]
(2040208060282828)
(2820804060428060)
(2080206040682080)
(6080408020428060)
(2064648282646482)
`800000000000200000000000B00000000000000000000000200000000000000000000000600000000000000000000000200000000000000000000000400000000000000060000000000000000000000000000000400000000000000000000000'
[800200800600800604000800]
[400600200800400208000200]
(6080608020868686)
(8680204020824020)
(8060402040286020)
(8060802080428060)
(4080208060428020)
(6040204060286846)
(8060208040826284)
(2080604020824828)
(6080208040246860)
(4080206080242868)
(2080408020848628)
(6080206020648280)
(40646464682428B0)
(A040804060286846)
(2080402080486286)
(8020604060286468)
(2060406080248280)
(4020802060242868)
(4080602080628242)
(8060802080462868)
(2060806020842480)
(0048284282862626)
{8060800060002000800040002000800020004000600020008000600080002000}
(6824282862642824)
`800000000000200000000000600000000000400000000000800000002000000080000000200000000000600000000000400000008000000040000000800000000000200000000000800000000000400000000000600000000000200000000000'
(8682628682842828)
(2628628684826460)
[000404040208060404040208]
[060404040208060760606080]
[204094040402080604040402]
[080604020406080204020406]
[080204020406080204020806]
`0000000040000000000000002000000000000008000000004000000000006000000000002000000000008000000000002000000000006000000000004!400000000000400000000000600000000000200000000000800000000000400000000000'
(628!884!448268248!8848)
`2000000000006000000000004000000000006000000000008000000020000000400000000000000000000000000000006000000000004000000000008000000000002000000000006000000000004000000000008!800000000000800000000000'
(4626826!662!22628462)
`8!800000000000800000000000400000000000800000000000200000000000600000000000400000000000600000000000200000008000000060000000000000000000000000000000800000002000000040000000000000000000000000000000'
(8628264!446284628!88)
(4!448268248!88482646)
`8000000020000000400000000000000000000000000000006000000000004000000000008000000000002000000000006000000000004000000000008!800000000000800000000000400000000000600000000000200000000000600000000000'
(826!668!886284628!8848)
`200000000000600000000000400000000000600000000000200000008000000060000000000000000000000000000000800000002000000040000000000000000000000000000000200000008000000060000000000000000000000000000000'
`800000002000000040000000000000000000000000000000B!B00000000000000000000000000000000000000000B000007!700000000000000000000000000000000000000000700000800000000000000000000000400000000000000000000000'
[800200604000800200800400]
[600800406000200800600200]
[800400604000800200400200]
[800400208000200400200800]
(6020428060804020)
(8040286080608060)
(4080428060206464)
(828264648282B020)
[800200406000200600400600]
`200000000000000000000000600000000000400000000000600000000000000040000000000000000000000000000000800000000000000000000000200000000000000000000000600000000000000000000000800000000000000000000000'
`200000000000000000000000800000000000600000000000200000000000000080000000000000000000000000000000200000000000000000000000600000000000000000000000400000000000000000000000600000000000000000000000'
`200000000000000000000000800000000000200000000000800000000000000020000000000000000000000000000000600000000000000000000000200000000000000000000000800000000000000000000000400000000000000000000000'
(8020824020806080)
(4080286080406080)
(2080682040802080)
(6020428040602080)
(2060286846806020)
(8040826284208060)
(4020824828608020)
(8040246860408020)
(6080242868208040)
(8020848628608020)
(6020648280406464)
(6468242868B04080)
(4060286846208040)
(2080486286802060)
(4060286468206464)
(828264648282B080)
(2060242868408060)
(2080628242806080)
(2080462868206080)
(20402620706010A0)
(6824286480208264)
(8268408046264824)
{800000004000000090000000A00000007!70000070900000007000000020008000}
(2848682080828428)
(6260804828428620)
{70000000A0000000900000007!70000070A0000000400000002000000080000000}
(6824286480402040)
(8264826860604020)
(4626482480204020)
(8484A!A0<81>090A04060)
(2828486820808040)
(8284286240802060)
(4828428620701000)
(8282828288806020)
(8040888020604060)
`800000000000800000000000800000000000000000000000600000000000000000000000200000000000000000000000600000000000000080000000000000002000000000000000400000000000000060000000000000008000000000000000'
`200000000000000040000000000000006000000000000000800000000000000020000000000000004000000000000000600000000000600000000000600000000000000000000000200000000000000000000000800000000000000000000000'
(4080222080406040)
`200000000000200000000000200000000000000000000000800000000000000000000000200000000000000000000000400000000000000020000000000000008000000000000000600000000000000040000000000000002000000000000000'
`800000000000000060000000000000004000000000000000200000000000000080000000000000006000000000000000200000000000200000000000200000000000000000000000600000000000000000000000800000000000000000000000'
(6080222080608020)
`800000000000800000000000800000000000000000000000200000000000000000000000800000000000000000000000600000000000000080000000000000002000000000000000400000000000000060000000000000008000000000000000'
`200000000000000040000000000000006000000000000000800000000000000020000000000000004000000000000000200000000000200000000000200000000000000000000000600000000000000000000000200000000000000000000000'
(8040888020604060)
`800000000000800000000000800000000000000000000000600000000000000000000000200000000000000000000000400000000000000020000000000000008000000000000000600000000000000040000000000000002000000000000000'
[806040208060100100300100]
0B8267B!B0
(0BA070009000004!40)
{0000000000000000000040006!602080208000000080003000700000000000A000}
{00000000900000002!200000000000000000000000000020009000000000008020}
`400000006!6000000000000000000000000000000060000000A00000000000000000000000700000000000A00000000000B!B00000000000000000000000000000000000000000000000000000000000B00000000000A00000000000000000000000'
301008!800
{000080006!602080208000000020009000300000000000A0000000000010000000}
`8!800000000000000000000000000000000000000000000000000000000000000000000000000000000000800000000000100000000000000000000000000000200000600000200000600000004!4000000000000000000000000000000040000000'
{A00000002060206020602060206020604!40000000000000000000000030000000}
(A0009000042!20006!60)
{000030004!408020802000000080001000700000000000A0000000000090000000}
`2!200000000000000000000000000000000000000000000000000000000000000000000000000000000000200000000000900000000000000000000000200000000000800000000000400000006!6000000000000000000000000000000060000000'
`A00000000000000000000000700000000000A00000000000B!B00000000000000000000000000000000000000000000000000000000000B00000000000A00000000000000000000000700000000000000020000000600000000000000000000000'
{40000000800000006000000040000000600000002!20000000000000001!40802080}
`200000000000000000000000000000000000400000000000400000002000000080000000600000004000000020000000800000000000000000000000000000000000000000000000600000000000000000000000000000008000000000000000'
`000000000000000020000000000000000000000000400000600000008000000020000000400000002000000080000000600000000000000000000000000000000000000000000000A00000000000000000000000B00000000000000000000000'
A73AB397
1BAB3B31
37B1A37B
{30000000A0000000B000000030000000A!A00000A070000000A000000070000000}
`3!300000000000000000300000B00000000000000000000000A000000000000000000000007000000000000000000000006!600000002000000080600000400000000000000000000000A00000000000000000000000700000000000000000000000'
`3!300000000000000000300000900000000000000000000000B00000000000000000000000A000000000000000000000006!600000004000000080600000200000000000000000000000A00000000000000000000000900000000000000000000000'
{7!70000070A000000070000000300000009!90000090B000000080208000B0000000}
{7!70000070A00000006080600010000000A!A00000A0B00000001000000090000000}
{A!A00000A0B000000010000000300000009!9000009010000000A0000000B0000000}
{7!70000070A000000070000000300000009!9000009030000000B000000010000000}
{B!B00000B03000000090000000B00000001!10000010A00000007000000030000000}
{B!B00000B0A000000070000000300000009!90000090400080002000800040002000}
(8286262686424828)
{4000200080006000208020006000200060008000200040002000800020008000}
`600000000000200000000000600000000000400000000000200000000000800000000000200000000000400000000000800000000000200000000000600000000000400000000000800000002000000080000000200000000000600000000000'
`400000008000000040000000800000000000200000000000800000000000400000000000600000000000200000000000800000000000600000000000800000000000200000000000600000000000200000000000800000000000600000000000'
(8284282826286286)
`800000000000400000000000800000000000200000000000600000000000400000000000600000000000000000000000000000000000000000000000400000000000000040000000000000004000000000000000200000000000000080000000'
[060404040208060404040208]
[060700606060802040900040]
[404020806040404020806040]
[204060802040204060802040]
[204060802040208060402090]
(4628264!446284628!88)
(4!448268248!88482646)
`8000000020000000400000000000000000000000000000006000000000004000000000008000000000002000000000006000000000004000000000008!800000000000800000000000400000000000600000000000200000000000600000000000'
(826!662!226284628!8848)
`200000000000600000000000400000000000600000000000200000008000000060000000000000000000000000000000800000002000000040000000000000000000000000000000800000000000600000000000200000000000800000000000'
(264!446284628!884!4482)
`6000000000008000000000002000000000004000000000008!800000000000800000000000400000000000800000000000200000000000600000000000400000000000600000000000800000002000000040000000000000000000000000000000'
(6482648!884626826!66)
(8!886284628!88482646)
`200000008000000060000000000000000000000000000000800000002000000040000000000000000000000000000000200000008000000060000000000000000000000000000000800000002000000400000000000000000000000000000000'
;
